#TITLE:Hands Up!!!;
#SUBTITLE:;
#ARTIST:Unknown artist;
#TITLETRANSLIT:;
#SUBTITLETRANSLIT:;
#ARTISTTRANSLIT:;
#CREDIT:;
#BANNER:;
#BACKGROUND:;
#LYRICSPATH:;
#CDTITLE:;
#MUSIC:Hands Up!!!.mp3;
#OFFSET:0.000;
#SAMPLESTART:100.000;
#SAMPLELENGTH:12.000;
#SELECTABLE:YES;
#BPMS:0.000=135.000;
#STOPS:;
#BGCHANGES:;
// cache tags:
#FIRSTBEAT:15.250;
#LASTBEAT:474.625;
#SONGFILENAME:Songs/Music V.I.P ^_^/Hands Up!!!/Hands Up!!!.sm;
#HASMUSIC:1;
#HASBANNER:0;
#MUSICLENGTH:216.084;
// end cache tags

//---------------dance-single - Blank----------------
#NOTES:
     dance-single:
     Blank:
     Hard:
     1:
     1.000,1.000,1.000,0.213,1.000,1124.000,416.000,46.000,0.000,44.000:

0000
0000
0000
0000
,
0000
0000
0000
0000
,
0000
0000
0000
0000
,
0000
0000
0000
0000
0000
0000
0000
0000
0000
0000
0000
0000
0000
2000
0000
0000
,
0000
0000
0000
0000
0000
0000
0000
0000
0000
0000
0000
0000
0000
0000
0000
0000
3000
0000
0000
0001
0010
0000
0100
1000
0000
0000
0000
0001
0000
0000
0000
0010
,
0000
0000
0000
0000
0000
0000
0000
0101
0000
0000
0000
0000
0000
0000
0000
1010
0000
0000
0000
0000
0000
0000
0000
0101
0000
0000
0000
0000
0000
1010
0000
0000
,
0000
0000
0000
0101
0000
0000
0000
1010
0000
0000
0000
0000
0000
0101
0000
0000
0000
0000
0000
1010
0000
0000
0000
1000
0000
0011
0000
0000
0100
0000
0000
0000
,
0000
0011
0000
0000
0000
0000
0000
1000
0001
0000
0000
0000
0000
0000
0000
0000
0110
0000
0000
0000
0000
0000
0000
1001
0000
0000
0000
0000
0000
0000
0110
0000
,
0000
0000
0000
1001
0000
0000
0000
1010
0000
0000
0000
0101
0000
0000
0000
1010
0000
0000
0101
0000
1010
0100
0001
1010
0000
0000
0000
0000
0101
0000
1010
0000
,
0000
0000
0000
0101
0000
0000
0000
0000
1010
0000
0000
0000
0001
0100
0010
0000
1000
0000
0000
0000
0011
0000
0000
0000
1100
0000
0000
0000
0011
0000
1100
0011
,
0000
0000
0000
0100
0001
0000
0000
1010
0000
0000
0000
0101
0000
0000
0000
1000
0010
0000
0101
0000
0000
1010
0000
0101
0000
1010
0000
0000
0101
0000
0000
1010
,
0000
0000
0000
0101
0000
0000
0000
1010
0000
0000
0000
0101
0000
0000
0000
0000
1010
0000
0000
0001
0000
0000
0000
1000
0000
0001
0000
0100
0000
0010
1000
0000
,
0001
0100
0000
0010
1000
0000
0001
0100
0010
1001
0100
1010
0001
0110
1001
0010
0100
0001
1010
0100
0010
0000
1000
0001
0000
0000
0110
0000
0000
1001
0000
0010
,
0000
0100
0000
0001
1000
0000
0010
0100
0000
0001
1000
0000
0010
0000
0100
0000
0001
1000
0000
0000
0010
0100
0000
1001
0010
0000
0000
0000
0101
0000
1010
0000
,
0000
0000
0000
0000
0001
0110
0000
1000
0000
0000
0000
0000
0001
0010
0100
1000
0000
0000
0000
0000
0001
0000
0010
0100
1000
0000
0000
0000
0000
0010
0001
1000
,
0000
0100
0000
0000
0000
0000
0110
0001
1000
0000
0000
0000
0000
0000
0110
1001
0000
0000
0000
0000
0000
0000
0110
1001
0000
0000
0000
0000
0000
0110
1000
0001
,
0000
0000
0000
0000
0000
1000
0001
0000
0110
0000
1001
0010
0100
0001
1010
0000
0101
1010
0000
0101
0010
1001
0000
0110
1000
0001
0000
0000
0000
0000
0101
0010
,
1000
0000
0000
0000
0000
0000
0001
1010
0100
0001
0000
0000
0000
0000
0101
1010
0000
0000
0000
0000
0000
0001
0100
0011
1000
0000
0000
0000
0000
0001
0001
0000
,
0101
0000
0000
0000
0000
0000
0010
1001
0000
0000
0000
0000
0000
0010
0101
0000
1000
0000
0000
0000
0000
0010
1001
0010
0000
0000
0000
0000
0000
0001
0100
0010
,
1000
0000
0000
0000
0000
0000
0101
0000
1010
0000
0000
0000
0000
0000
0000
1001
0010
0000
0000
0000
0000
0000
1000
0000
0000
0000
0001
0000
0000
0000
0100
0000
,
0000
0000
0010
0000
0000
0000
1000
0000
0001
0000
0100
0010
0000
1000
0000
0001
0000
0100
0010
0000
0000
1001
0000
0000
0000
0010
0000
0000
0000
0100
0000
0000
,
0000
0000
0001
0000
0000
0000
1000
0000
0000
0000
0000
0001
0000
0000
0010
0000
0100
0001
0000
0010
1000
0000
0000
0000
0001
0000
0000
0000
0100
0000
0000
0010
,
0000
0000
0000
1000
0000
0000
0000
0001
0000
0000
0000
0100
0000
0010
0000
1001
0000
0000
0100
0010
0000
1000
0001
0000
0110
0000
0000
0000
0001
0000
0000
1010
,
0000
0000
0000
0001
0100
0000
0000
0000
1010
0000
0000
0000
0101
0000
1010
0000
0101
0000
1010
0000
0001
0000
0000
0000
1100
0000
0011
1100
0000
0000
0011
1100
,
0000
0011
0000
1100
0000
0011
0000
1100
0011
0100
0011
0100
0011
0100
0011
1100
0011
0000
1111
0000
0000
0000
1100
0000
0000
0000
0000
0011
0000
0000
1100
0000
,
0000
0000
0000
0001
0000
1000
0000
0101
0000
1010
0001
0000
0110
0001
1010
0000
0101
0010
1001
0000
0110
1000
0000
0001
0000
0000
0000
0010
0100
0000
0000
0000
,
1001
0000
0000
1010
0000
0000
0000
1001
0000
0000
0000
0000
0110
0000
1001
0110
0001
1000
0010
0101
0000
1010
0000
0000
0001
0000
0000
0010
0100
0000
0000
0001
,
1000
0000
0000
0010
0100
0000
0000
1001
0000
0000
0000
0110
0000
0000
0000
1001
0000
0000
0000
0110
0000
0000
0000
1000
0000
0001
0100
0000
0010
1000
0000
0001
,
0100
0000
0010
1000
0001
0100
0010
1000
0011
0100
1010
0001
0110
0001
1000
0111
0000
0001
1000
0010
0100
0001
1000
0000
0001
0000
0100
0000
0010
1000
0000
0001
,
0000
0100
0010
0000
1000
0001
0000
0100
0010
1000
0000
0001
0100
0000
0010
1000
0001
0000
0110
0000
1001
0000
0110
0000
1000
0001
0000
0110
0000
1000
0001
0010
,
0100
0000
1001
0000
0110
0000
0001
0000
0010
0000
0100
1000
0001
0000
0100
0000
0001
1000
0000
0010
0100
0000
0001
0000
1000
0000
0010
0100
0001
0000
1000
0010
,
0000
0100
0001
0000
1000
0010
0000
0100
0001
1000
0010
0100
0001
0000
1010
0100
0001
1000
0010
0101
0010
0000
1000
0000
0001
0100
0010
0001
0010
0000
0001
0010
,
0000
0010
0001
0010
0000
0001
0100
1000
0001
0100
1000
0000
0100
1000
0000
0100
1000
0000
0100
2000
0000
0100
0000
0000
0000
3001
0000
0000
0000
0010
0000
0000
,
1100
0000
0000
0001
0010
0000
0000
1100
0000
0000
0000
0011
0000
1100
0000
0011
1100
0000
0011
0000
0000
1000
0000
0100
0001
0000
0010
1000
0000
0100
0001
0010
,
1000
0000
0100
0001
0010
0000
0000
0000
1100
0000
0000
0000
0001
0000
0010
1100
0001
0000
0010
0000
1100
0000
0000
0000
0000
0001
0000
0000
1100
0000
0000
0010
,
0000
0000
0000
1100
0000
0000
0000
0011
0000
0000
0000
1100
0000
0011
0000
1100
0000
0011
0000
1100
0000
0000
0000
0000
0000
0001
0000
0000
0010
0000
0000
0000
,
0001
0000
0000
0010
0000
1000
0010
0100
1010
0010
0100
1010
0100
0000
1000
0120
0000
2000
0100
0000
0000
0100
0001
0000
0030
3000
0000
0000
0000
0000
0000
0010
,
0000
0000
0000
0000
0000
0000
0000
0001
0000
0000
0000
0001
0000
0000
0000
0001
0000
0000
0000
0001
0000
0000
0000
0001
0000
0000
0000
0000
0000
0000
0000
0010
,
0000
0000
0000
0000
0000
0000
1000
0000
0000
0000
0000
0001
0000
0000
0000
0001
0000
0000
0000
0010
0000
0000
0000
1100
0000
0000
0000
0000
0000
0000
0000
0001
,
0000
0000
0000
0000
0000
0000
0000
0010
0000
0000
0000
0000
0010
0000
0000
0000
0010
0000
0000
0000
0010
0000
0000
0000
0001
0000
0000
0000
0000
0000
0000
0000
,
0010
0000
0000
0000
0000
0000
0000
1000
0000
0000
0000
0010
0000
0000
0000
0001
0000
0000
0000
0010
0000
0000
0000
1000
0000
0000
0000
0000
0000
0000
0000
0001
,
0000
0000
0000
0000
0000
0000
0000
0001
0000
0000
0000
0000
0000
0000
0000
0001
0000
0000
0000
0000
0000
0000
0000
1000
0000
0000
0000
0000
0000
0000
0000
0000
,
1000
0000
0000
0000
0000
0000
0000
0000
0010
0000
0000
0000
0000
0000
0000
0001
0000
0000
0000
0000
0000
0000
0000
0000
0110
0000
0000
0000
0000
0000
0000
0001
,
0000
0000
0000
0000
0000
0000
0000
0000
0001
0000
0000
0000
0000
0000
0000
0001
0000
0000
0000
0000
0000
0000
0000
0001
0000
0000
0000
0000
0000
0000
0000
0002
,
0000
0000
0000
0000
0000
0000
0000
0000
0000
0000
0000
0000
0000
0000
0000
0000
0000
0000
0000
0000
0000
0000
0000
1003
0000
0000
0000
0000
0000
0000
0000
0010
,
0000
0000
0000
0000
0000
0000
0000
0001
0000
0000
0000
0010
0000
0000
0000
0100
0000
0000
0000
0001
0000
0000
0000
0000
1010
0000
0000
0000
0000
0000
0000
0001
,
0000
0000
0000
0000
0000
0000
0000
0000
0010
0000
0000
0001
0000
0000
0000
0010
0000
0000
0000
0001
0000
0000
0000
1000
0000
0000
0000
0000
0000
0000
0000
0001
,
0000
0000
0000
0000
0000
0000
0000
0010
0000
0000
0000
0010
0000
0000
0000
0000
0010
0000
0000
0000
0010
0000
0000
0100
0000
0000
0000
0000
0000
0000
0000
0001
,
0000
0000
0000
0000
0000
0000
0000
0010
0000
0000
0000
0001
0000
0000
0000
0000
0010
0000
0000
0000
1000
0000
0000
1000
0000
0000
0000
0000
0000
0000
0000
0001
,
0000
0000
0000
0000
0000
0000
0000
0000
0100
0000
0000
0000
0010
0000
0000
0000
0001
0000
0000
0010
0000
0000
0000
0000
1111
0000
0000
0000
0000
0000
0000
0010
,
0100
0000
0000
0000
0000
0000
0000
0000
0101
0000
0000
0000
0010
0000
0000
0000
1100
0000
0000
0010
0000
0000
0000
0000
1100
0000
0000
0000
0000
0000
0000
0001
,
0000
0000
0000
0000
0000
0000
0000
0000
0111
0000
0000
0001
0000
0000
0000
0010
0000
0000
0000
0001
0000
0000
0000
0000
0010
0000
0000
0000
0000
0000
0000
0001
,
0000
0000
0000
0000
0000
0000
0000
2000
0000
0000
0000
0000
0000
0000
0000
0000
0000
0000
0000
0000
0000
0000
0000
0010
0000
3000
0000
0000
0000
0000
0000
0001
,
0000
0000
0000
0000
0000
0000
0000
0000
0110
0000
0000
0001
0000
0000
0000
0010
0000
0000
0000
0001
0000
0000
0000
0000
0010
0000
0000
0000
0000
0000
0000
0010
,
0000
0000
0000
0000
0000
0000
0000
0100
0000
0000
0000
1000
0000
0000
0000
0001
0000
0000
0000
0010
0000
0000
0000
0110
0000
0000
0000
0000
0000
0000
0000
0001
,
0000
0000
0000
0000
0000
0000
0000
0010
0000
0000
0000
0100
0000
0000
0000
0000
0010
0000
0000
0000
0100
0000
0000
0000
0010
0000
0000
0000
0000
0000
0000
0000
,
0010
0000
0000
0000
0000
0000
0000
0001
0000
0000
0000
0000
1000
0000
0000
0001
0000
0000
0000
0000
1000
0000
0000
0000
0001
0000
0000
0000
0000
0000
0000
0001
,
0000
0000
0000
0000
0000
0000
0000
0001
0000
0000
0000
0010
0000
0000
0000
0001
0000
0000
0000
0010
0000
0000
0000
1101
0000
0000
0000
0000
0000
0000
0000
0010
,
0000
0000
0000
0000
0000
0000
0000
0000
0101
0000
0000
0000
0010
0000
0000
0001
0000
0000
0000
0010
0000
0000
0000
0000
1001
0000
0000
0000
0000
0000
0000
0010
,
0000
0000
0000
0000
0000
0000
0000
1000
0000
0000
0000
0001
0000
0000
0000
0000
0010
0000
0000
0000
0001
0000
0000
1000
0000
0001
0000
0000
0100
0000
0011
0000
,
1000
0000
0011
0000
0100
0000
0011
0000
1000
0000
0011
0000
0100
0000
0000
0011
1000
0000
0011
0000
0100
0000
0011
0000
1010
0001
0000
0000
0000
0000
0000
0001
,
0000
0000
0000
0000
0000
0000
0000
0000
0110
0000
0000
0001
0000
0000
0000
0000
1010
0000
0000
0001
0000
0000
0000
1000
0000
0000
0000
0000
0000
0000
0000
0001
,
0000
0000
0000
0000
0000
0000
0000
0010
0000
0000
0000
0001
0000
0000
0000
0010
0000
0000
0000
0001
0000
0000
0000
1000
0000
0000
0000
0000
0000
0000
0000
0001
,
0000
0000
0000
0000
0000
0000
0000
0100
0000
0000
0000
0100
0000
0000
0000
0000
0100
0000
0000
0100
0000
0000
0000
0100
0000
0000
0000
0000
0000
0000
0000
0100
,
0000
0000
0000
0000
0000
0000
0000
0000
0010
0000
0000
0000
0010
0000
0000
0000
0010
0000
0000
0000
0010
0000
0000
1001
0000
0000
0000
0000
0000
0000
0000
0010
,
0000
0000
0000
0000
0000
0000
0000
0000
0110
0000
0000
1001
0000
0000
0000
0000
0010
0000
0000
0001
0000
0000
0000
1010
0000
0000
0000
0000
0000
0000
0000
0001
,
0000
0000
0000
0000
0000
0000
0000
0110
0000
0000
0000
0001
0000
0000
0000
0000
1010
0000
0000
0001
0000
0000
0000
0000
1101
0000
0000
0000
0000
0000
0000
0101
,
0000
0000
0000
0000
0000
0000
0000
1011
0000
0000
0000
1101
0000
0000
0000
1011
0000
0000
0000
1101
0000
0000
0000
0000
1011
0000
0000
0000
1111
0000
0000
1001
,
0000
0000
0000
0000
1111
0000
0000
0000
1100
0011
0000
1100
0000
0000
0011
1100
0000
0000
0011
1000
0101
0010
1001
0100
0010
0000
0001
0000
0010
0000
1000
0000
,
0000
0001
0000
0110
0000
0000
0000
0000
0000
1001
0000
0110
0000
0000
0000
1001
0000
0000
0000
0110
0000
0000
0000
0000
0000
0000
1001
0010
0000
0000
0000
0000
,
0001
0000
1010
0000
0000
0000
0000
0000
0000
0101
0000
1010
0000
0000
0000
0101
0000
0000
0000
1000
0010
0000
0000
0100
0001
0000
0000
1010
0000
0000
0000
0000
,
0000
0101
0000
1010
0000
0000
0000
0000
0000
0101
0000
1010
0001
0110
0000
1001
0100
0010
0001
1000
0010
0000
0000
0000
0000
0101
0010
0000
1000
0000
0000
0000
,
0001
0010
0100
1000
0000
0000
0000
0001
0000
0000
0000
0110
0000
0000
0000
1001
0000
0000
0000
0000
0000
0110
0000
0000
0000
0000
0000
1001
0110
0000
0000
0000
,
0000
0000
1001
0110
0000
0000
0000
0000
0000
0000
1001
0110
0000
0000
0000
0001
1000
0000
0000
0000
1010
0000
0000
0000
0000
0000
0101
0000
0010
0000
0000
0000
,
0000
0001
0000
0010
0000
0000
0000
0000
0000
0101
0000
0010
1000
0000
0000
0000
0101
0000
0000
0000
1010
0000
0000
0100
0001
1000
0000
0010
0000
0000
0000
0000
,
0100
0001
1000
0000
0010
0000
0000
0000
0100
1001
0000
0010
0000
0101
0000
0000
1010
0000
0000
0101
0000
0000
0000
1000
0010
0000
0000
0101
0000
0000
0000
1010
,
0000
0000
0000
0101
0000
0000
1000
0001
0100
0010
0000
1001
0110
0000
1001
0010
0101
1000
0010
0101
0000
1010
0100
0000
0001
0000
0000
0010
0100
0001
0000
0000
,
0000
0010
0000
1101
0000
0000
0000
0000
0000
0010
1101
0000
0000
0000
0000
0110
0000
0000
0000
0101
0000
0000
0000
0000
0000
0101
0000
1010
0000
0000
0000
0000
,
0000
0101
0010
0100
0000
0000
0000
0000
0000
1111
0000
0000
1001
0000
0000
1111
0000
0000
0000
0000
1111
0000
0000
0000
0000
0000
1001
0110
0000
0000
0000
0000
,
1001
0000
0110
0000
0000
0000
0000
1000
0000
0101
0010
1000
0001
0110
0000
1001
0000
0110
0000
1001
0000
0000
0000
0000
0101
0000
1010
0000
0000
0000
0000
0001
,
0000
1010
0000
0000
0000
0000
0000
0101
0000
0000
0000
1010
0000
0000
0000
0101
0000
0000
0000
0101
0000
0000
0000
0000
0000
0001
0000
1000
0000
0000
0000
0000
,
0000
0001
0000
0100
0000
0000
0000
0000
0000
0010
0000
0001
1000
0000
0000
0000
0110
0000
0000
0000
1001
0000
0000
0000
0000
0000
0011
1100
0000
0000
0000
0000
,
0000
0001
0010
1100
0000
0000
0000
0000
0000
0001
0010
1000
0100
0000
0000
0001
0000
0000
0000
1100
0010
0000
0000
0000
0000
0000
0001
1010
0000
0100
0000
0000
,
0000
0001
0010
1000
0100
0000
0000
0000
0001
0000
1000
0010
0100
0001
1000
0010
0100
0000
0000
0001
0000
0000
0000
1000
0000
0000
0001
0000
0100
0000
0000
0000
,
0010
0000
0000
1001
0000
0000
0001
0100
0000
1010
0000
0101
0010
1001
0100
0011
1001
0100
0010
1001
0001
0100
0000
0000
1111
0000
0000
0001
0010
0000
0000
1100
,
0000
0000
0000
0000
0011
0000
0000
0000
0011
0000
0000
0000
0011
0000
0000
0000
0000
0000
0000
0000
0000
0000
0000
0000
0000
0000
0000
0000
0000
0000
0000
1100
,
0000
0000
0000
0000
0000
0000
0000
0000
1100
0000
0000
0000
0000
0000
0000
1100
0000
0000
0000
0000
0000
0000
0000
2200
0000
0000
0000
0000
0000
0000
0000
0000
,
0000
0022
0000
0000
,
0000
0000
0000
0000
0000
0000
0000
0000
0000
0000
0000
0000
0000
3333
0000
0000
0000
0000
0000
0000
2002
0000
0220
0000
0000
0000
0000
0000
0000
0000
0000
0000
,
0000
0000
0000
0000
0000
0000
0000
0000
0000
0000
0000
0000
0000
0000
0000
3333
0000
0000
0000
0000
0020
2200
0002
0000
0000
0000
0000
0000
0000
0000
0000
0000
,
0000
0000
0000
0000
0000
0000
0000
0000
0000
0000
0000
0000
0000
0000
0000
0000
0000
0000
3333
0000
0000
0000
2002
0220
0000
0000
0000
0000
0000
0000
0000
0000
,
0000
0000
0000
3333
0000
0000
0000
2222
0000
0000
0000
0000
0000
0000
0000
0000
0000
0000
0000
3333
0000
0000
0000
2222
0000
0000
0000
0000
0000
3333
0000
2222
,
0000
0000
0000
0000
0000
0000
3333
0000
2222
0000
0000
0000
0000
0333
3000
1111
0000
0000
0000
0000
0000
0000
0000
2222
0000
0000
0000
0000
0000
0000
0000
0000
,
0000
0000
0000
0000
0000
0000
0000
0000
0000
3333
0000
0011
0000
0000
0000
0011
0000
0000
0000
0011
0000
0000
0000
1100
0000
0000
0000
0000
0000
0000
0000
0000
,
0000
0000
0000
0000
0000
0000
0000
0000
0000
0000
0000
0001
0000
0000
0000
0000
0000
0000
0000
0001
0000
0000
0000
1000
0000
0000
0000
0010
0000
0000
0000
0000
,
0000
0000
0000
0001
0000
0000
0000
0000
0000
0000
0000
0001
0000
0000
0000
0000
0000
0000
0000
0000
0001
0000
0000
0000
0001
0000
0000
0001
0000
0000
0000
0000
,
0000
0000
0001
0000
0000
0000
0000
0000
0000
0000
0000
0001
0000
0000
0000
0001
0000
0000
0000
0001
0000
0000
0000
1000
0000
0000
0000
0001
0000
0000
0000
0000
,
0100
0000
0000
0000
0000
0000
0000
0001
0000
0000
0000
0000
0000
0000
0000
0001
0000
0000
0000
0000
0000
0000
0000
0002
0000
0000
0000
0000
0000
0000
0000
0000
,
0000
0000
0000
0000
0000
0000
0000
0000
0000
0000
0000
2000
0000
0000
0000
0000
0000
0000
0000
0000
0000
0000
0000
0200
0000
0000
0000
0000
0000
0000
0000
0000
,
0000
0000
0000
0000
0000
0000
0000
0020
0000
0000
0000
0000
0000
0000
0000
0000
0000
0000
0000
0000
0033
3300
0000
0011
0000
0000
0000
1100
0000
0000
0000
0000
,
0011
0000
0000
0000
1100
0010
0000
0000
1001
0000
0110
0001
1000
0110
0000
1001
0000
0110
0001
0000
0010
0000
1000
0000
0001
0010
0000
0000
0000
0000
0000
0101
,
0010
0000
0000
0000
0000
0000
1001
0000
0010
0000
0000
0000
0000
0000
0101
0000
0010
0000
0000
0000
0000
0000
1001
0000
0010
0000
0000
0000
0000
0000
0110
1000
,
0001
0000
0000
0000
0000
0000
0000
0110
1001
0000
0000
0000
0000
0000
0010
0100
1001
0000
0000
0000
0000
0000
1001
0010
0000
0000
0000
0000
0000
0001
0110
0000
,
0001
0000
0000
0000
0000
0001
1010
0000
0001
0000
0000
0000
0000
0000
0110
0000
0001
1000
0000
0000
0000
0000
0010
0101
1000
0000
0000
0000
0000
0010
0000
0101
,
1000
0000
0000
0000
0001
0000
0010
1000
0100
0000
0000
0001
0000
1010
0000
0101
0000
1010
0101
0000
1110
0100
0000
0000
0001
0000
1010
0000
0100
0000
0000
0000
,
0001
0010
0100
0000
0000
0000
0000
0010
0101
0000
0000
0000
0000
0000
0000
0110
0000
1000
0000
0000
0000
0000
0000
0110
1000
0000
0000
0000
0000
0001
0000
0110
,
0000
0000
0000
0000
0000
0001
0000
0010
0100
0000
0000
0000
0000
0001
1000
0110
0000
0000
0000
0000
0000
0000
0001
0100
1010
0000
0000
0000
0000
0000
0101
0010
,
1000
0000
0000
0000
0000
0000
0101
0010
1000
0000
0000
0000
0000
0001
0000
0110
0000
0000
0000
0000
0000
0000
0000
0011
0000
0000
1000
0000
0000
0000
0000
0011
,
0000
0000
0000
0011
0000
0000
0000
0100
0000
0011
0100
0000
0000
0011
0100
0000
0000
0011
0100
0000
1001
0000
0111
0000
1000
0110
0000
0000
0011
0000
0011
0000
,
0000
0000
0000
0000
0000
0000
0000
0000
0000
0000
0000
0000
0000
0000
0000
0000
0000
0000
0000
0000
0000
0000
0000
0000
0000
0000
1100
0001
0000
0010
0000
0000
,
1000
0101
0010
0000
0000
0000
0000
0000
1001
0000
0110
0000
0000
0000
0000
0101
0010
1000
0000
0000
0000
0000
0000
0101
1010
0000
0100
0000
0001
0000
0000
0000
,
0110
0000
0000
0001
0000
0000
1000
0000
0010
0000
0000
0000
0101
0000
0000
0000
1010
0000
0000
0000
0101
0000
0000
0000
1000
0000
0000
0001
0000
0000
0000
0000
,
0010
0000
0000
0001
0000
0000
0000
1100
0000
0000
0000
0011
0000
0000
0000
0011
0000
0000
0000
0011
0000
0000
0000
1100
0000
0000
0000
0011
0000
1100
0000
0011
,
0000
1100
0000
0011
0000
0000
1000
0000
0100
0001
0000
1010
0000
0100
0000
0001
0010
0000
0100
1000
0001
0010
0000
0000
0111
0000
0000
0000
0011
1000
0000
0000
,
0001
0000
0100
0000
0010
0000
1000
0001
0000
0100
0000
0010
0000
1000
0000
0001
0100
0000
0000
0010
1000
0000
0001
0000
0100
0000
1010
0100
1001
0010
0100
0001
,
1010
0000
0101
0010
1000
0000
0110
0000
1001
0110
0000
1001
0010
0100
0001
1010
0100
0001
1010
0000
0011
0000
1000
0000
0000
0000
0000
0001
1000
0000
0000
0010
,
0000
0000
0001
0000
0000
0000
1001
0100
1010
0000
0101
0000
1011
0110
0001
1011
0100
0000
1010
0111
0000
0000
0100
1011
0000
0111
0000
0000
0000
0000
0000
0000
,
0000
0000
0000
0000
0000
0000
0000
0000
0000
0000
0000
0000
0000
0000
0000
0000
0000
0000
0000
0000
0000
0000
0000
0000
0000
0000
0000
0000
1110
0000
1001
0110
,
0001
1000
0110
0000
0000
0000
0000
0000
0000
0000
0000
0000
0000
0000
0000
0000
0000
0000
0000
0011
0000
0011
0000
0000
0000
0000
0000
0000
0000
0000
0000
0000
;
